<?xml version="1.0" standalone="no"?>
<!DOCTYPE svg PUBLIC "-//W3C//DTD SVG 1.1//EN" "http://www.w3.org/Graphics/SVG/1.1/DTD/svg11.dtd" >
<svg>
<metadata>
Created by FontForge 20110222 at Fri Aug  7 13:06:44 2015
 By www-data
Generated in 2012 by FontLab Studio. Copyright info pending.
</metadata>
<defs>
<font id="Socialico" horiz-adv-x="796" >
  <font-face 
    font-family="Socialico"
    font-weight="400"
    font-stretch="normal"
    units-per-em="1000"
    panose-1="0 0 0 0 0 0 0 0 0 0"
    ascent="750"
    descent="-250"
    x-height="699"
    cap-height="677"
    bbox="47 -4 884 707"
    underline-thickness="50"
    underline-position="-50"
    unicode-range="U+0020-007A"
  />
<missing-glyph 
 />
    <glyph glyph-name=".notdef" 
 />
    <glyph glyph-name="b" unicode="b" 
d="M258 484v0v-165c0 -73 59 -133 132 -133h33c73 0 132 56 132 124c0 69 -44 124 -99 124h-66c-18 0 -33 -15 -33 -33s15 -33 33 -33h66c16 0 33 -25 33 -58c0 -32 -29 -57 -66 -57h-33c-36 0 -66 29 -66 66v165c0 18 -15 33 -33 33s-33 -15 -33 -33zM402 703v0
c192 -2 348 -159 348 -351c0 -194 -158 -352 -352 -352s-351 158 -351 352c0 192 155 349 348 351h7z" />
    <glyph glyph-name="c" unicode="c" 
d="M222 363v0v-48c0 -5 4 -8 8 -8h48l37 64h-85c-4 0 -8 -4 -8 -8zM373 428v0c-4 2 -9 1 -11 -3l-97 -168c-2 -4 -1 -9 3 -11l21 -12c4 -2 9 -1 11 3l97 168c2 4 1 9 -3 11zM390 510v0c-11 -5 21 -72 32 -97s52 -121 61 -126c8 -4 11 -1 17 1s16 10 10 19
c-5 10 -46 91 -66 122c-20 32 -47 85 -54 81zM567 371v0h-75c9 -16 17 -32 23 -42c3 -8 6 -13 7 -15c2 -2 2 -5 3 -7h42c5 0 8 3 8 8v48c0 4 -3 8 -8 8zM556 191v0s7 64 -30 44c-3 -3 -10 -10 -1 -22c9 -13 29 -14 31 -22zM510 243v0c3 -4 8 -5 12 -3l9 5c4 3 5 8 3 13
l-10 19c-2 4 -7 6 -11 4l-12 -6c-5 -3 -6 -8 -3 -12zM363 307v0h88l-30 64h-21zM283 216v0c3 3 3 6 -1 9l-21 12c-3 2 -7 0 -7 -4l-4 -32c0 -4 2 -6 6 -3zM399 -1v0c-194 0 -352 158 -352 352s158 351 352 351s351 -157 351 -351s-157 -352 -351 -352z" />
    <glyph glyph-name="d" unicode="d" 
d="M447 327v0c12 2 24 3 35 3c16 0 32 -2 49 -6c-8 -38 -31 -71 -64 -90c-4 32 -10 63 -20 93zM319 240v0c25 38 60 66 102 80c10 -31 17 -64 20 -98c-14 -5 -28 -7 -43 -7c-28 0 -55 9 -79 25zM438 353v0c-3 7 -6 15 -9 22c28 13 56 31 81 52c15 -23 24 -49 24 -76
c-18 4 -35 7 -52 7c-14 0 -29 -2 -44 -5zM492 448v0c-23 -20 -48 -36 -75 -48c-15 28 -33 55 -54 81c12 3 23 5 35 5c36 0 69 -14 94 -38zM392 390v0c-36 -13 -73 -19 -110 -19h-18c7 43 34 80 72 100c22 -26 41 -53 56 -81zM398 513v0c-90 0 -162 -73 -162 -162
c0 -90 72 -163 162 -163s163 73 163 163c0 89 -73 162 -163 162zM398 -1v0c-194 0 -351 157 -351 352c0 194 157 351 351 351s352 -157 352 -351c0 -195 -158 -352 -352 -352zM412 346v0c-46 -16 -86 -46 -113 -87c-22 23 -35 53 -36 85c7 0 13 -1 19 -1c41 0 82 8 122 22
c2 -6 5 -13 8 -19z" />
    <glyph glyph-name="e" unicode="e" 
d="M351 307v0c0 -15 -5 -26 -16 -31c-6 -3 -14 -4 -25 -4h-52v65h53c10 0 19 -1 24 -4c11 -5 16 -14 16 -26zM536 370v0c7 -7 11 -16 12 -28h-79c2 11 6 20 12 27c7 7 16 10 28 10c10 0 19 -3 27 -9zM202 474v0v-245h110c13 0 24 1 35 3c10 3 20 7 27 13c7 5 13 11 18 19
c7 12 11 25 11 39s-4 26 -10 36s-16 17 -28 22c8 4 14 8 18 14c8 9 12 21 12 36c0 14 -4 27 -11 37c-13 17 -34 26 -64 26h-118zM402 703v0c193 -2 348 -159 348 -351c0 -194 -157 -352 -351 -352s-352 158 -352 352c0 192 156 349 348 351h7zM446 393v0
c-16 -17 -24 -40 -24 -70c0 -33 8 -56 26 -71c18 -14 39 -21 62 -21c28 0 51 8 66 25c10 11 16 22 17 32h-47c-2 -5 -5 -9 -9 -12c-7 -5 -15 -8 -26 -8c-9 0 -18 2 -25 7c-11 7 -18 19 -18 37h128c0 15 -1 26 -2 34c-2 14 -7 26 -14 37c-8 12 -18 20 -30 26
c-12 5 -26 8 -41 8c-26 0 -47 -8 -63 -24zM459 464v0v-25h98v25h-98zM336 384v0c-7 -4 -15 -6 -26 -6h-52v54h46c12 0 21 -2 29 -4c9 -4 13 -11 13 -23c0 -10 -3 -17 -10 -21z" />
    <glyph glyph-name="f" unicode="f" horiz-adv-x="795" 
d="M307 404v0v-65h52v-158h65v158h65v65h-65v33c0 11 7 20 13 20h52v64h-52c-43 0 -78 -38 -78 -85v-32h-52zM398 0v0c-194 0 -351 157 -351 351s157 352 351 352s351 -158 351 -352s-157 -351 -351 -351z" />
    <glyph glyph-name="g" unicode="g" horiz-adv-x="795" 
d="M393 394v0c-19 0 -35 15 -35 35c0 19 16 35 35 35s35 -16 35 -35c0 -20 -16 -35 -35 -35zM398 227v0c-22 0 -40 12 -40 27s18 27 40 27s40 -12 40 -27s-18 -27 -40 -27zM338 339v0c0 -10 2 -20 6 -29c-22 -13 -36 -33 -36 -56c0 -39 40 -70 90 -70s90 31 90 70
s-40 70 -90 70h-7c-2 4 -3 9 -3 15c0 5 1 15 3 15h2c41 0 75 33 75 75c0 10 -5 22 -10 28l26 14v50l-54 -30c-12 8 -24 13 -39 13c-41 0 -74 -34 -74 -75c0 -24 11 -44 28 -58c-5 -10 -7 -21 -7 -32zM398 1v0c-194 0 -351 157 -351 352c0 194 157 351 351 351
s351 -157 351 -351c0 -195 -157 -352 -351 -352z" />
    <glyph glyph-name="h" unicode="h" 
d="M365 286v0c11 -6 49 -21 70 3c22 25 -15 38 -42 42c-39 6 -88 27 -84 68c3 42 35 63 68 66c42 4 69 -6 91 -25c25 -21 11 -45 -5 -47c-15 -2 -33 35 -68 36c-37 0 -61 -38 -16 -49c44 -11 92 -15 109 -56c18 -41 -26 -84 -76 -86c-49 -3 -72 8 -93 28c-23 22 -14 47 6 48
c19 1 30 -22 40 -28zM323 517v0c-51 0 -92 -41 -92 -92c0 -18 5 -36 15 -50c-2 -8 -2 -16 -2 -24c0 -85 69 -154 154 -154c10 0 19 1 28 3c14 -9 31 -14 49 -14c51 0 92 41 92 92c0 19 -6 37 -16 52c1 7 1 14 1 21c0 84 -69 153 -154 153c-8 0 -17 0 -25 -2
c-14 10 -32 15 -50 15zM399 0v0c-194 0 -352 157 -352 351s158 351 352 351s351 -157 351 -351s-157 -351 -351 -351z" />
    <glyph glyph-name="i" unicode="i" 
d="M299 551v0c-21 0 -38 -18 -38 -39s17 -38 38 -38s38 17 38 38s-17 39 -38 39zM360 451v0v-215h62v138s26 25 50 11c5 -2 11 -12 11 -18v-131h61v131c0 28 -17 58 -42 72c-23 12 -56 14 -80 2v10h-62zM330 236v0v215h-62v-215h62zM398 0v0c-194 0 -351 158 -351 352
s157 351 351 351s352 -157 352 -351s-158 -352 -352 -352z" />
    <glyph glyph-name="j" unicode="j" horiz-adv-x="795" 
d="M284 420v0c-139 -57 -77 -192 -77 -192l211 61l-58 117c104 30 191 -31 191 -31l-72 -19l-20 38c-20 4 -42 5 -66 1l49 -99l211 60s-76 120 -304 82c-2 -1 -3 -1 -4 -1l-22 45l-66 -8zM334 317v0l-70 -19s-21 45 39 83zM402 702v0c192 -2 347 -159 347 -351
c0 -194 -157 -352 -351 -352s-351 158 -351 352c0 192 155 349 347 351h8z" />
    <glyph glyph-name="k" unicode="k" 
d="M215 527v0v-208v0c3 -72 90 -130 196 -130c108 0 196 60 196 134c0 73 -88 133 -196 133c-47 0 -91 -11 -125 -30v101h-71zM411 381v0c-46 0 -82 -26 -82 -58c0 -33 36 -59 82 -59c45 0 82 26 82 59c0 32 -37 58 -82 58zM411 234v0c-69 0 -125 39 -125 89
c0 49 56 89 125 89s125 -40 125 -89c0 -50 -56 -89 -125 -89zM402 702v0c193 -2 348 -158 348 -351c0 -194 -158 -351 -352 -351s-351 157 -351 351c0 193 155 349 348 351h7z" />
    <glyph glyph-name="l" unicode="l" 
d="M399 702v0c194 0 351 -157 351 -351s-157 -351 -351 -351s-352 157 -352 351s158 351 352 351zM589 452c-13 -5 -26 -9 -41 -11c15 9 25 23 32 39c-14 -7 -30 -14 -47 -17c-12 14 -30 23 -51 23c-39 0 -71 -32 -71 -72c0 -5 1 -11 2 -16c-60 3 -111 31 -147 75
c-6 -11 -9 -23 -9 -36c0 -25 11 -47 31 -59c-12 0 -23 3 -32 8v-1c0 -34 24 -63 56 -70c-5 -1 -11 -2 -19 -2c-4 0 -8 1 -12 2c8 -28 34 -49 66 -50c-24 -19 -55 -30 -88 -30h-17c31 -20 69 -32 109 -32c131 0 202 108 202 203v9c14 10 27 24 36 37z" />
    <glyph glyph-name="m" unicode="m" 
d="M543 183v0v136c0 40 -33 72 -73 72c-20 0 -38 -7 -51 -20c-6 23 -27 40 -52 40c-17 0 -32 -8 -42 -20c-4 17 -18 29 -35 29c-21 0 -37 -17 -37 -38v-66h58v-57h87v-76h145zM288 497v0c-17 0 -31 -14 -31 -31c0 -18 14 -32 31 -32s31 14 31 32c0 17 -14 31 -31 31z
M367 507v0c-23 0 -41 -19 -41 -41c0 -23 18 -41 41 -41c22 0 41 18 41 41c0 22 -19 41 -41 41zM470 519v0c-29 0 -53 -24 -53 -53c0 -30 24 -54 53 -54c30 0 53 24 53 54c0 29 -23 53 -53 53zM398 702v0c194 0 352 -157 352 -351s-158 -351 -352 -351s-351 157 -351 351
s157 351 351 351z" />
    <glyph glyph-name="n" unicode="n" 
d="M289 436v0c-47 0 -85 -38 -85 -85s38 -85 85 -85s85 38 85 85s-38 85 -85 85zM508 436v0c-46 0 -84 -38 -84 -85s38 -85 84 -85c47 0 85 38 85 85s-38 85 -85 85zM399 0v0c-194 0 -352 157 -352 351s158 351 352 351s351 -157 351 -351s-157 -351 -351 -351z" />
    <glyph glyph-name="o" unicode="o" 
d="M311 414v0v-39h38v-98c0 -13 1 -23 4 -29c2 -7 7 -13 14 -19s15 -11 25 -14s17 -5 30 -5c11 0 22 1 32 3c9 3 20 7 32 12v44c-14 -9 -28 -13 -42 -13c-8 0 -15 1 -21 5c-5 3 -9 8 -11 12c-2 5 -2 14 -2 30v72h65v50h-65v64h-39c-2 -14 -5 -26 -10 -35
c-5 -10 -11 -18 -19 -24c-8 -7 -20 -12 -31 -16zM402 701v0c192 -2 348 -159 348 -351c0 -194 -158 -352 -352 -352s-351 158 -351 352c0 192 155 349 348 351h7z" />
    <glyph glyph-name="p" unicode="p" 
d="M297 522v0l-67 -308h89l22 102h63c61 0 111 38 125 101c15 72 -36 105 -81 105h-151zM395 375v0h-42l19 84h44c15 0 26 -9 30 -21c1 -5 2 -11 1 -17c-1 -1 -1 -2 -1 -4c-6 -23 -27 -41 -49 -42h-2zM564 379v0c7 34 -1 59 -15 76c7 -16 9 -35 4 -59
c-13 -63 -64 -101 -125 -101h-63l-22 -102h-74l-4 -16h89l21 101h64c60 0 111 38 125 101zM398 -2v0c-194 0 -351 157 -351 351s157 351 351 351s352 -157 352 -351s-158 -351 -352 -351z" />
    <glyph glyph-name="q" unicode="q" 
d="M557 368v0c3 86 -66 157 -153 157s-161 -71 -164 -157c-3 -87 66 -157 153 -157c15 0 31 2 45 7c5 -8 10 -15 17 -23c28 -33 68 -11 68 -11v27s-19 -4 -42 26c44 28 74 76 76 131zM405 486v0c46 0 80 -52 78 -115c-1 -34 -13 -65 -30 -86c-29 44 -72 25 -72 25v-27
s17 5 29 -11c2 -4 5 -9 7 -13c-7 -3 -13 -4 -20 -4c-45 0 -80 52 -78 116c3 63 41 115 86 115zM399 702v0c194 0 351 -157 351 -351c0 -195 -157 -352 -351 -352c-195 0 -352 157 -352 352c0 194 157 351 352 351z" />
    <glyph glyph-name="r" unicode="r" 
d="M287 274v0c-25 0 -45 -20 -45 -45s20 -45 45 -45s45 20 45 45s-20 45 -45 45zM402 700v0c193 -2 348 -158 348 -351c0 -194 -157 -351 -351 -351s-352 157 -352 351c0 193 156 349 348 351h7zM242 408v0v-65c42 0 82 -17 112 -47s46 -70 46 -112h66
c0 123 -101 224 -224 224zM242 523v0v-65c151 0 274 -123 274 -274h65c0 187 -152 339 -339 339z" />
    <glyph glyph-name="s" unicode="s" 
d="M398 0v0c-194 0 -351 157 -351 352c0 194 157 351 351 351c195 0 352 -157 352 -351c0 -195 -157 -352 -352 -352zM602 293v0v55h-69v-55c0 -12 -9 -21 -21 -21s-21 9 -21 21v57l-41 -13l-28 13v-57c0 -50 41 -90 90 -90c50 0 90 40 90 90zM422 396v0l28 -13l41 13v25
c0 49 -40 90 -89 90c-50 0 -90 -41 -90 -90v-125c0 -12 -9 -22 -21 -22s-21 10 -21 22v55h-69v-55c0 -50 40 -90 90 -90c49 0 90 37 90 87v128c0 11 9 21 21 21c11 0 20 -10 20 -21v-25z" />
    <glyph glyph-name="t" unicode="t" 
d="M276 466v0v-136c0 -73 55 -132 122 -132h85c21 0 38 17 38 38c0 22 -16 38 -37 38h-84c-25 0 -48 26 -48 56v21h131c21 0 38 17 38 38c0 22 -17 39 -38 39h-131v38c0 21 -16 38 -38 38c-21 0 -38 -17 -38 -38zM399 0v0c-194 0 -352 157 -352 351s158 352 352 352
s351 -158 351 -352s-157 -351 -351 -351z" />
    <glyph glyph-name="u" unicode="u" 
d="M345 276v0c-11 0 -20 9 -20 20s9 20 20 20h117c11 0 20 -9 20 -20s-9 -20 -20 -20h-117zM240 416v0v-121c0 -57 46 -104 103 -104h120c57 0 104 47 104 104v84v4l-3 6l-5 4c-6 4 -37 -1 -45 7c-6 5 -6 15 -8 28c-4 25 -6 27 -10 35c-14 31 -53 54 -80 57h-73
c-57 0 -103 -47 -103 -104zM398 -1v0c-194 0 -351 157 -351 351s157 351 351 351s352 -157 352 -351s-158 -351 -352 -351zM345 395v0c-11 0 -20 9 -20 20s9 20 20 20h57c11 0 20 -9 20 -20s-9 -20 -20 -20h-57z" />
    <glyph glyph-name="v" unicode="v" 
d="M321 520v0c-50 -10 -116 -88 -116 -88l16 -21s32 26 43 13s52 -166 66 -195c12 -25 45 -58 81 -34c36 23 157 126 178 248c22 121 -145 96 -162 -10c44 26 67 -11 45 -53c-23 -42 -43 -69 -54 -69s-19 28 -32 77c-12 51 -12 143 -65 132zM398 0v0
c-194 0 -351 157 -351 351s157 351 351 351s352 -157 352 -351s-158 -351 -352 -351z" />
    <glyph glyph-name="w" unicode="w" 
d="M244 417v0c-9 -21 -15 -44 -15 -69c0 -67 39 -125 96 -152zM398 517v0c-59 0 -111 -30 -141 -76h11c18 0 45 2 45 2c9 0 10 -13 1 -14c0 0 -9 -1 -19 -2l61 -183l37 111l-26 72l-18 2c-9 1 -8 14 1 14c0 0 28 -2 45 -2c18 0 45 2 45 2c9 0 10 -13 1 -14c0 0 -9 -1 -19 -2
l61 -181l17 56c8 22 13 40 13 55c0 21 -8 35 -14 46c-9 14 -17 26 -17 40c0 15 12 30 28 30h3c-30 27 -71 44 -115 44zM547 429v0c1 -5 1 -11 1 -17c0 -17 -3 -37 -13 -61l-52 -149c51 29 85 84 85 146c0 30 -8 57 -21 81zM398 179v0c20 0 39 3 57 10c-1 0 -1 1 -2 2
l-52 142l-50 -147c15 -5 31 -7 47 -7zM398 -3v0c-194 0 -351 157 -351 351s157 351 351 351c195 0 352 -157 352 -351s-157 -351 -352 -351z" />
    <glyph glyph-name="x" unicode="x" 
d="M432 209v0v66c1 1 3 2 4 3c2 0 3 1 5 1c3 0 5 -1 6 -3c2 -2 2 -4 2 -8v-54c0 -4 0 -6 -1 -7c-2 -2 -3 -3 -6 -3c-2 0 -3 1 -5 1c-2 1 -3 2 -5 4zM506 276v0c1 1 4 2 7 2s6 -1 7 -2c1 -2 2 -6 2 -10v-10h-18v10c0 4 0 8 2 10zM401 377v0c-3 0 -6 1 -8 3c-1 2 -2 4 -2 7v63
c0 3 1 5 3 6c1 2 4 3 7 3s5 -1 7 -3c2 -1 3 -3 3 -6v-63c0 -3 -1 -5 -3 -7s-4 -3 -7 -3zM253 331v0v-20h25v-122h23v122h25v20h-73zM302 517v0h-26l31 -95v-62h27v65l31 92h-27l-17 -63h-1zM367 449v0v-60c0 -9 3 -17 9 -23s14 -9 25 -9c10 0 19 3 25 9c6 5 9 13 9 23v60
c0 8 -3 16 -9 21c-6 6 -14 9 -24 9c-11 0 -19 -3 -26 -8c-6 -6 -9 -13 -9 -22zM451 295v0c-4 0 -7 0 -10 -2s-6 -4 -9 -7v45h-21v-142h21v8c3 -3 6 -5 9 -7c3 -1 7 -2 11 -2c6 0 11 2 14 6s5 9 5 17v58c0 9 -2 15 -5 20c-4 4 -9 6 -15 6zM454 476v0v-97c0 -7 2 -12 4 -15
c3 -4 7 -6 13 -6c4 0 9 2 13 4c5 3 10 6 14 11v-13h24v116h-24v-88c-2 -3 -5 -5 -7 -6c-3 -2 -5 -3 -7 -3s-4 1 -5 2s-1 3 -1 6v89h-24zM544 266v0c0 10 -3 17 -8 23c-5 5 -12 8 -22 8c-9 0 -17 -3 -23 -9s-9 -13 -9 -22v-47c0 -10 3 -18 8 -24c6 -6 13 -9 22 -9
c11 0 19 3 24 8c5 6 8 14 8 25v5h-22v-5c0 -6 0 -10 -2 -12c-1 -1 -4 -2 -7 -2s-6 1 -7 3c-2 2 -2 6 -2 11v20h40v27zM395 189v0v105h-21v-80c-2 -2 -4 -4 -6 -5c-3 -2 -5 -2 -6 -2c-2 0 -4 0 -5 1c0 1 -1 3 -1 6v80h-21v-88c0 -6 1 -10 4 -14c2 -3 6 -4 11 -4c4 0 8 1 12 3
s8 5 12 10v-12h21zM399 0v0c-194 0 -352 157 -352 351s158 352 352 352s351 -158 351 -352s-157 -351 -351 -351z" />
    <glyph glyph-name="y" unicode="y" 
d="M166 490v0v-29h61c24 -19 116 -133 119 -144c2 -11 3 -74 -1 -78c-9 -10 -50 -7 -60 -8l-3 -20c18 0 76 2 95 2c35 0 98 0 107 -1l1 21c-9 1 -58 0 -65 1c-2 10 -3 77 -2 83c7 20 111 101 123 104c2 0 6 1 11 2h33l5 8h1l13 19h-1l1 2h-182l7 -29h50l-83 -75
c-17 23 -57 72 -85 113h62v22l1 4c0 1 -1 1 -1 1v2h-207zM599 262v0l32 126c-5 0 -54 4 -61 6l1 -130zM596 211v0l4 30l-16 1l-18 2v-30l14 -2zM399 -1v0c-195 0 -352 157 -352 351s157 352 352 352c194 0 351 -158 351 -352s-157 -351 -351 -351z" />
    <glyph glyph-name="z" unicode="z" horiz-adv-x="795" 
d="M351 299v0c-21 -45 -61 -62 -83 -68l17 -44c60 16 82 45 101 71l6 7c2 2 5 4 8 4c2 0 3 -1 5 -2c53 -23 78 -55 87 -73l35 21c-40 79 -101 102 -103 104c0 0 -7 4 -6 11c2 6 5 11 12 11h7c23 -4 43 -7 87 16l-14 31c-16 -7 -45 -15 -75 -5l-5 2l-2 5c-2 3 -2 7 -2 11v3
c-9 1 -17 5 -24 9c-30 -16 -43 -43 -47 -92c-1 -14 -2 -20 -4 -22zM398 518v0c-25 0 -45 -20 -45 -45s20 -45 45 -45s45 20 45 45s-20 45 -45 45zM398 0v0c-194 0 -351 157 -351 351s157 351 351 351s351 -157 351 -351s-157 -351 -351 -351z" />
    <glyph glyph-name="zero" unicode="0" 
d="M253 352v0l-31 -107c21 8 40 12 57 12c28 0 48 -11 65 -21c8 26 27 91 32 110c-4 3 -8 5 -12 8c-17 8 -32 12 -48 12h-6c-19 -1 -36 -6 -48 -10c-3 -2 -6 -3 -9 -4zM294 497v0l-30 -107c22 9 41 13 59 13v0c26 0 46 -10 62 -21l32 109c-7 4 -24 14 -37 17
c-8 2 -17 3 -27 3c-17 0 -37 -5 -59 -14zM515 450v0c-31 0 -54 11 -69 21l-32 -109c21 -14 44 -21 68 -21c20 0 40 5 60 14v1h2l30 106c-20 -8 -40 -12 -59 -12zM502 212v0l30 103c-20 -6 -40 -9 -58 -9c-33 0 -56 10 -70 21l-31 -108c9 -6 40 -22 64 -22c19 0 40 4 65 15z
M398 2v0c-194 0 -351 158 -351 352s157 351 351 351s352 -157 352 -351s-158 -352 -352 -352z" />
    <glyph glyph-name="one" unicode="1" 
d="M233 403v0v-99h116v-115h99v115h116v99h-116v116h-99v-116h-116zM399 2v0c-195 0 -352 158 -352 352s157 351 352 351c194 0 351 -157 351 -351s-157 -352 -351 -352z" />
    <glyph glyph-name="two" unicode="2" 
d="M281 418v0c-33 0 -60 -27 -60 -60s27 -60 60 -60c15 0 28 5 39 14l121 -61v-3c0 -33 27 -60 60 -60s60 27 60 60s-27 60 -60 60c-15 0 -28 -6 -39 -14l-121 60v4v3l121 61c11 -9 24 -14 39 -14c33 0 60 26 60 60c0 33 -27 59 -60 59s-60 -26 -60 -59v-4l-121 -61
c-11 9 -24 15 -39 15zM402 701v0c193 -2 348 -158 348 -351c0 -194 -157 -351 -351 -351s-352 157 -352 351c0 193 156 349 348 351h7z" />
    <glyph glyph-name="three" unicode="3" horiz-adv-x="795" 
d="M205 444v0c-32 -103 146 -263 199 -263c52 0 219 160 187 263c-17 56 -59 78 -100 78c-67 0 -88 -65 -93 -65s-24 65 -92 65c-41 0 -84 -22 -101 -78zM398 0v0c-194 0 -351 157 -351 351s157 352 351 352s351 -158 351 -352s-157 -351 -351 -351z" />
    <glyph glyph-name="four" unicode="4" horiz-adv-x="795" 
d="M321 504v0c-58 -29 -93 -87 -93 -151c0 -15 2 -30 6 -44c5 4 148 134 151 137c-3 2 -62 56 -64 58zM402 700v0c192 -2 347 -158 347 -351c0 -194 -157 -351 -351 -351s-351 157 -351 351c0 193 155 349 347 351h8zM398 523v0c-20 0 -40 -4 -59 -11
c4 -4 123 -112 129 -118v114c-22 10 -46 15 -70 15zM486 498v0v-201h73c6 18 9 37 9 56c0 59 -31 114 -82 145zM414 184v0c58 5 111 41 137 95h-223v-81c18 -8 36 -13 54 -14h32zM311 208v0v146c-6 -5 -69 -62 -71 -64c14 -34 39 -63 71 -82z" />
    <glyph glyph-name="five" unicode="5" 
d="M202 327v0v-127l110 33v-45h161l-47 142h77v0c53 0 96 43 96 96s-43 96 -96 96c-48 0 -88 -36 -95 -82h-3c-7 46 -47 82 -95 82c-53 0 -95 -43 -95 -96c0 -52 42 -95 94 -96v0h3v-32zM337 426v0c0 -15 -12 -27 -27 -27s-27 12 -27 27s12 27 27 27s27 -12 27 -27zM505 399
v0c-15 0 -27 12 -27 27s12 27 27 27s27 -12 27 -27s-12 -27 -27 -27zM398 2v0c-194 0 -351 157 -351 351s157 352 351 352c195 0 352 -158 352 -352s-157 -351 -352 -351z" />
    <glyph glyph-name="six" unicode="6" 
d="M301 495v0c-80 0 -144 -65 -144 -145c0 -79 64 -144 144 -144c45 0 85 21 111 53l-18 43c-18 -34 -53 -56 -93 -56c-58 0 -105 47 -105 104c0 58 47 105 105 105c43 0 81 -25 96 -62l46 -105l5 -12c19 -43 46 -68 96 -68c55 0 97 35 97 84c0 47 -24 65 -74 82
c-37 12 -64 16 -64 46c0 21 17 37 39 37c17 0 29 -7 41 -23l31 16c-16 28 -38 42 -70 42c-48 0 -78 -29 -78 -73c0 -45 29 -63 86 -82c31 -10 50 -17 50 -44s-25 -49 -60 -47c-36 1 -48 21 -61 50c-21 49 -45 105 -47 110c-24 56 -73 89 -133 89zM399 -1v0
c-194 0 -352 157 -352 351s158 352 352 352s351 -158 351 -352s-157 -351 -351 -351z" />
    <glyph glyph-name="seven" unicode="7" 
d="M401 446v0c-29 0 -52 -23 -52 -51c0 -29 23 -52 52 -52c28 0 51 23 51 52c0 28 -23 51 -51 51zM401 519v0c-69 0 -125 -56 -125 -124c0 -60 43 -110 100 -122l25 -99l25 99c56 12 99 62 99 122c0 68 -56 124 -124 124zM399 -4v0c-194 0 -352 157 -352 351
s158 352 352 352s351 -158 351 -352s-157 -351 -351 -351zM401 302v0c-52 0 -93 41 -93 93c0 51 41 93 93 93c51 0 93 -42 93 -93c0 -52 -42 -93 -93 -93z" />
    <glyph glyph-name="eight" unicode="8" 
d="M398 184v0c186 7 133 235 135 221c2 -15 -12 -33 -12 -33c-7 67 -115 147 -115 147c-2 -30 -70 -68 -105 -119c-29 -41 -22 -90 -28 -93c-6 -2 -14 6 -14 6c31 -115 105 -127 139 -129zM399 703v0c194 0 351 -157 351 -351c0 -195 -157 -352 -351 -352s-352 157 -352 352
c0 194 158 351 352 351z" />
    <glyph glyph-name="nine" unicode="9" 
d="M188 333v0c-2 -37 24 -66 70 -62c5 1 10 2 15 5c7 3 12 9 18 13c-5 -22 -12 -56 18 -56v0h23c4 21 6 41 9 60c3 20 8 39 10 60c3 40 -20 62 -56 64c-39 3 -66 -11 -84 -29c-13 -15 -22 -32 -23 -55zM250 313v0c-18 13 -7 51 7 62c3 3 8 5 15 6c5 0 15 -1 19 -4
c16 -12 8 -51 -7 -62c-7 -5 -23 -8 -34 -2zM365 316v0c-2 -11 -4 -25 1 -32c7 -9 27 -9 44 -8c5 27 10 61 14 92c2 10 5 23 0 30c-6 12 -25 11 -45 11v-1c-4 -28 -10 -62 -14 -92zM408 468v0c-16 -5 -30 -13 -26 -31c4 -15 22 -19 36 -13c11 4 22 15 17 31
c-2 6 -8 11 -18 13h-9zM437 302v0c-2 -26 21 -28 47 -27c4 21 7 44 11 65c6 -9 11 -20 18 -31c5 -9 13 -24 21 -29c19 -13 54 -4 57 18c-28 6 -34 32 -47 52c10 11 55 52 65 63c-20 -1 -41 4 -56 -2c-5 -2 -11 -8 -15 -12c-10 -9 -18 -19 -27 -29c-4 -5 -9 -10 -14 -14
c2 22 10 54 12 77c2 28 -19 29 -48 28v-2c-5 -35 -23 -144 -24 -157zM399 -1v0c-194 0 -352 157 -352 352c0 194 158 351 352 351s351 -157 351 -351c0 -195 -157 -352 -351 -352z" />
    <glyph glyph-name="at" unicode="@" 
d="M278 421v0c-29 -50 -8 -125 21 -165c13 -20 30 -43 51 -42s29 14 54 14s33 -14 55 -13c22 0 36 20 50 40c16 23 22 45 23 47c-1 0 -44 16 -45 66c0 42 34 62 36 63c-19 28 -49 32 -60 32c-26 3 -50 -15 -63 -15s-33 15 -54 14c-28 0 -54 -16 -68 -41zM415 518v0
c-11 -13 -20 -32 -18 -51c19 -2 38 9 49 23c12 14 19 33 17 53c-16 -1 -36 -11 -48 -25zM399 0v0c-194 0 -352 157 -352 351s158 352 352 352s351 -158 351 -352s-157 -351 -351 -351z" />
    <glyph glyph-name="exclam" unicode="!" 
d="M168 343v0c-12 -10 -20 -25 -20 -42c0 -16 8 -31 20 -42v84zM189 355v0v-107c5 -1 10 -2 16 -2h5v110c-2 1 -4 1 -5 1c-6 0 -11 -1 -16 -2zM231 350v0v-104h21v139c-8 -11 -14 -23 -17 -37c-1 1 -2 1 -4 2zM273 405v0v-159h21v169c-7 -2 -15 -6 -21 -10zM315 419v0v-173
h21v173c-4 0 -9 1 -13 1c-3 0 -5 0 -8 -1zM347 416v0v-170h31v174c-3 -4 -7 -8 -9 -13c-7 4 -15 7 -22 9zM389 430v0v-184h199v1c42 2 61 28 61 60c0 33 -25 60 -59 60c-9 0 -16 -2 -24 -5c-6 53 -51 94 -107 94c-27 0 -52 -9 -70 -26zM399 0v0c-194 0 -352 157 -352 351
s158 352 352 352s351 -158 351 -352s-157 -351 -351 -351z" />
    <glyph glyph-name="question" unicode="?" 
d="M398 495v0c-93 0 -168 -53 -168 -118c0 -52 49 -96 117 -112c-4 -14 -15 -48 -30 -57c0 0 83 2 125 56c72 14 124 59 124 113c0 65 -75 118 -168 118zM499 370v0c0 51 -50 92 -116 100h4c75 0 136 -42 136 -94c0 -36 -30 -68 -74 -83c31 18 50 46 50 77zM398 0v0
c-194 0 -351 157 -351 351s157 352 351 352s352 -158 352 -352s-158 -351 -352 -351z" />
    <glyph glyph-name="period" unicode="." 
d="M352 320v0c-14 -2 -24 -15 -23 -28c1 -14 13 -24 26 -22c14 2 24 14 23 28v1v0v84l65 12v-68c-4 2 -8 2 -12 2c-14 -2 -24 -14 -23 -28s13 -23 26 -22c14 2 24 15 23 28v1v0v123v0v0v0l-93 -16v-97c-4 2 -8 2 -12 2zM398 511v0c-88 0 -161 -72 -161 -161
c0 -88 73 -160 161 -160c89 0 161 72 161 160c0 89 -72 161 -161 161zM398 -1v0c-194 0 -351 157 -351 351s157 352 351 352s352 -158 352 -352s-158 -351 -352 -351zM398 222v0c-71 0 -128 57 -128 128s57 129 128 129s129 -58 129 -129s-58 -128 -129 -128z" />
    <glyph glyph-name="G" unicode="G" horiz-adv-x="417" 
d="M200 427c34 0 63 27 63 63c0 34 -29 63 -63 63s-63 -29 -63 -63c0 -36 29 -63 63 -63v0zM209 127c40 0 72 21 72 48s-32 49 -72 49s-72 -22 -72 -49s32 -48 72 -48v0zM101 328c0 20 4 40 13 58c-31 25 -51 61 -51 104c0 74 60 135 133 135c27 0 49 -9 71 -23l97 54v-90
l-47 -25c9 -11 18 -33 18 -51c0 -75 -61 -135 -135 -135h-4c-3 0 -5 -18 -5 -27c0 -11 2 -20 5 -27h13c90 0 162 -56 162 -126s-72 -126 -162 -126s-162 56 -162 126c0 42 25 78 65 101c-7 16 -11 34 -11 52v0z" />
    <glyph glyph-name="comma" unicode="," 
d="M226 397v0c-4 -9 -4 -17 1 -25c4 -9 11 -13 21 -15l6 -1l81 10c1 6 4 11 9 17l-50 36l-15 6c-11 3 -21 1 -31 -5c-11 -4 -18 -13 -22 -23zM310 491v0c-2 -11 1 -20 6 -30l3 -6l50 -54l8 3l-11 66c-1 7 -4 12 -7 18c-7 14 -15 21 -25 24c-5 2 -10 2 -13 -1
c-7 -4 -11 -10 -11 -20zM417 371v0c-6 6 -16 10 -26 10c-11 0 -20 -4 -26 -10c-8 -8 -12 -16 -12 -26c0 -11 4 -20 12 -27c6 -7 15 -11 26 -11c10 0 19 4 26 11c8 7 11 16 11 27c0 10 -3 18 -11 26zM406 492v0l-1 -5l1 -23l5 -63c6 -3 11 -6 17 -10l50 62c3 5 6 11 8 17
l2 12c0 7 -2 14 -4 20c-5 9 -14 16 -26 18c-10 4 -22 3 -32 -2c-10 -6 -18 -14 -20 -26zM508 424v0l-7 -2l-57 -48l-2 -2l1 -2l1 -4l69 8c7 1 13 3 19 5c14 7 22 14 26 25l1 5l-2 7c-3 7 -10 12 -19 13c-11 1 -20 0 -30 -5zM565 286v0l2 11c0 9 -3 18 -9 24
c-4 8 -12 13 -20 16l-6 1l-22 -1l-64 -5l-2 -7l-4 -9l59 -48c4 -5 9 -8 16 -9c11 -4 21 -3 31 2s16 13 19 25zM469 220v0c1 11 -2 20 -7 29l-3 6l-15 18l-23 24l-8 -4l-9 -4l8 -48l7 -19c6 -13 15 -22 25 -25c5 0 9 0 13 3c7 2 10 10 12 20zM383 206v0v22c-3 22 -4 42 -5 61
c-7 1 -12 4 -18 7l-47 -56c-5 -5 -7 -11 -9 -16l-2 -13c0 -7 2 -14 5 -19c4 -9 13 -16 24 -19c10 -3 21 -1 31 4s17 13 21 23v6zM296 281v0l4 3l17 14c7 6 13 13 21 20l-2 4l-3 11l-45 -8c-5 -1 -10 -4 -17 -7c-13 -6 -20 -14 -23 -23l-1 -5l1 -6c3 -5 10 -8 18 -9
c10 -1 19 1 30 6zM398 -3v0c-194 0 -351 157 -351 351s157 352 351 352s352 -158 352 -352s-158 -351 -352 -351z" />
    <glyph glyph-name="hyphen" unicode="-" 
d="M545 379v0c15 19 8 33 -16 33h-76l-37 77c-10 22 -26 22 -36 0l-36 -77h-77c-24 0 -31 -14 -15 -33h1l58 -71l-30 -86c-7 -23 4 -33 25 -22l92 46l92 -46c22 -11 33 -1 25 22l-29 86l58 71h1zM398 702v0c194 0 352 -157 352 -351c0 -195 -158 -352 -352 -352
s-351 157 -351 352c0 194 157 351 351 351z" />
    <glyph glyph-name="parenright" unicode=")" 
d="M271 485v0l-102 -112h75v-140c0 -9 8 -17 17 -17h171l-53 54h-81v103h75zM536 486v0h-171l53 -54h81v-103h-76l103 -112l102 112h-75v140c0 9 -8 17 -17 17zM398 0v0c-194 0 -351 157 -351 351s157 351 351 351s352 -157 352 -351s-158 -351 -352 -351z" />
    <glyph glyph-name="parenleft" unicode="(" horiz-adv-x="795" 
d="M364 335v0h-34l68 -68l68 68h-34v103h-68v-103zM398 523v0c-94 0 -171 -76 -171 -171c0 -94 77 -171 171 -171s171 77 171 171c0 95 -77 171 -171 171zM398 1v0c-194 0 -351 157 -351 351s157 352 351 352s351 -158 351 -352s-157 -351 -351 -351zM398 216v0
c-76 0 -137 61 -137 136c0 76 61 137 137 137c75 0 137 -61 137 -137c0 -75 -62 -136 -137 -136z" />
    <glyph glyph-name="ampersand" unicode="&#x26;" horiz-adv-x="795" 
d="M498 280c36 30 52 92 47 141c-6 55 -57 103 -117 110c-93 11 -177 -47 -178 -137c0 -43 14 -70 51 -85c26 26 -5 42 -8 71c-8 76 82 150 162 102c56 -33 46 -175 -21 -189c-14 -2 -31 2 -37 8c-33 31 26 84 7 128c-16 38 -63 8 -68 -26c-3 -18 6 -35 6 -51
c0 -37 -23 -88 -29 -125c-3 -15 -5 -45 -1 -60h-1h25c17 29 28 73 37 111c6 4 8 -7 12 -10c31 -24 88 -10 113 12zM398 701c194 0 351 -157 351 -351c0 -195 -157 -352 -351 -352s-351 157 -351 352c0 194 157 351 351 351z" />
    <glyph glyph-name="dollar" unicode="$" horiz-adv-x="795" 
d="M600 343v7c0 26 -7 46 -21 61c-13 14 -31 21 -53 21c-23 0 -41 -7 -55 -22c-15 -14 -22 -35 -22 -62c0 -26 7 -46 21 -60s33 -21 57 -21c19 0 35 4 47 13s21 22 25 38l-28 3c-5 -11 -10 -19 -17 -24c-8 -6 -16 -8 -27 -8c-13 0 -25 4 -34 14c-9 9 -14 22 -15 40h122z
M526 410c14 0 26 -5 34 -15c6 -7 10 -17 11 -30h-91c0 14 5 25 14 33s19 12 32 12zM417 270v109c0 18 -4 32 -13 40c-8 9 -21 13 -37 13c-21 0 -38 -9 -51 -27c-3 8 -8 15 -16 20s-18 7 -30 7c-11 0 -21 -2 -29 -7c-9 -5 -15 -11 -21 -18v22h-24v-159h27v83c0 14 2 25 5 33
c3 7 8 13 14 17c7 4 14 6 22 6c10 0 18 -3 22 -9c5 -6 7 -15 7 -27v-103h28v92c0 17 3 29 11 36s17 11 29 11c6 0 12 -1 16 -4c5 -3 8 -7 10 -12c2 -4 3 -12 3 -23v-100h27zM398 701c194 0 351 -157 351 -351c0 -195 -157 -352 -351 -352s-351 157 -351 352
c0 194 157 351 351 351z" />
    <glyph glyph-name="slash" unicode="/" 
d="M585 379v100c0 1 -1 3 -1 4l-198 -210l-31 52c3 8 5 17 5 27c0 41 -33 74 -74 74s-74 -33 -74 -74s33 -75 74 -75c9 0 17 2 25 5l72 -66zM398 701c194 0 352 -157 352 -351c0 -195 -158 -352 -352 -352s-351 157 -351 352c0 194 157 351 351 351z" />
    <glyph glyph-name="A" unicode="A" horiz-adv-x="767" 
d="M58 191c94 -54 211 -88 333 -88c76 0 159 14 236 45c5 1 13 5 18 7c13 5 23 -9 11 -16c-9 -8 -18 -15 -29 -20c-70 -43 -164 -65 -243 -65c-130 0 -245 47 -333 128c-7 5 -2 14 7 9v0zM445 450c-18 0 -38 0 -54 -4c-30 -9 -54 -28 -54 -68c0 -31 16 -52 45 -52h9
c16 5 31 16 40 34c16 23 14 47 14 76v14v0zM436 571c-9 12 -25 19 -39 19h-6c-25 -3 -47 -16 -54 -45c-2 -5 -5 -12 -12 -12l-71 7c-5 2 -12 5 -9 16c15 79 83 106 146 110h15c36 0 81 -11 109 -36c35 -32 31 -77 31 -124v-114c0 -32 14 -48 29 -66c3 -6 3 -13 -2 -18
c-14 -13 -40 -34 -56 -47c-3 -4 -11 -4 -16 -2c-25 20 -29 29 -41 47c-26 -25 -45 -38 -69 -45c-14 -4 -30 -7 -50 -7c-61 0 -108 38 -108 111c0 60 30 99 77 117c24 13 52 18 81 22c20 2 38 4 54 4v10c0 18 2 38 -9 53v0zM598 185c9 6 18 11 29 15c40 11 85 5 90 -4
c2 -2 4 -5 4 -11v-3c-2 -25 -15 -72 -45 -97c-6 -6 -13 -2 -9 3c9 22 28 72 19 85c-7 9 -34 7 -59 5c-11 -2 -20 -2 -27 -3c-7 0 -9 5 -2 10v0z" />
    <glyph glyph-name="B" unicode="B" horiz-adv-x="628" 
d="M47 590c0 32 27 59 60 59c32 0 59 -27 59 -59v-297c0 -67 54 -119 119 -119h59c67 0 119 45 119 103c0 59 -31 104 -59 104h-119c-33 0 -60 27 -60 60c0 32 27 59 60 59h119c99 0 178 -99 178 -223c0 -123 -106 -223 -238 -223h-59c-132 0 -238 108 -238 239v297v0z" />
    <glyph glyph-name="C" unicode="C" horiz-adv-x="728" 
d="M47 373c0 7 7 14 14 14h153l-66 -115h-87c-7 0 -14 5 -14 14v87v0zM319 490l37 -22c8 -4 9 -13 6 -20l-175 -302c-3 -7 -12 -9 -20 -6l-37 22c-8 4 -9 13 -6 20l175 302c3 7 12 9 20 6v0zM349 637c13 7 61 -88 97 -146c36 -55 110 -201 119 -219c11 -16 -7 -31 -18 -34
c-11 -4 -16 -9 -30 -2c-17 9 -90 182 -110 227s-78 165 -58 174v0zM668 387c9 0 14 -7 14 -14v-87c0 -9 -5 -14 -14 -14h-76c-2 3 -2 9 -5 12c-2 4 -7 13 -13 27c-11 18 -25 47 -41 76h135v0zM648 63c-4 14 -40 16 -56 40c-16 21 -3 34 2 39c67 36 54 -79 54 -79v0zM565 157
l-21 36c-6 7 -4 16 5 21l22 11c7 4 16 0 19 -7l18 -34c4 -9 2 -18 -5 -24l-16 -9c-7 -3 -16 -2 -22 6v0zM301 272l66 115h38l54 -115h-158v0zM157 108l-49 -32c-7 -6 -11 -2 -11 5l7 58c0 7 8 10 13 7l38 -22c7 -5 7 -11 2 -16v0z" />
    <glyph glyph-name="D" unicode="D" horiz-adv-x="678" 
d="M427 308c18 -54 29 -110 36 -167c59 34 101 93 115 162c-31 7 -59 11 -88 11c-20 0 -42 -2 -63 -6v0zM196 152c44 -29 92 -45 143 -45c27 0 52 3 77 12c-5 61 -18 121 -36 177c-76 -26 -139 -76 -184 -144v0zM411 355c27 5 54 9 79 9c30 0 61 -5 93 -13
c0 49 -16 96 -43 137c-45 -38 -95 -70 -146 -93c6 -13 11 -27 17 -40v0zM508 526c-45 43 -105 68 -169 68c-22 0 -42 -3 -63 -9c37 -46 70 -95 97 -145c48 21 93 50 135 86v0zM328 422c-27 50 -61 99 -101 145c-68 -36 -117 -102 -130 -180h33c66 0 133 11 198 35v0z
M339 643c162 0 293 -131 293 -292c0 -162 -131 -293 -293 -293s-292 131 -292 293c0 161 130 292 292 292v0zM364 342c-6 11 -11 24 -15 35c-72 -26 -145 -40 -219 -40c-11 0 -22 2 -34 2c1 -58 25 -112 64 -153c49 74 121 128 204 156v0z" />
    <glyph glyph-name="E" unicode="E" horiz-adv-x="803" 
d="M316 271c0 22 -9 38 -29 47c-9 6 -25 7 -43 7h-96v-117h94c20 0 34 2 45 8c20 9 29 28 29 55v0zM649 385c-15 11 -31 16 -49 16c-22 0 -38 -5 -50 -18c-11 -13 -18 -29 -22 -49h142c-2 22 -9 38 -21 51v0zM47 572h213c54 0 92 -16 115 -47c13 -18 20 -41 20 -66
c0 -27 -7 -49 -22 -65c-7 -11 -18 -18 -32 -25c21 -9 39 -22 50 -40s18 -40 18 -65s-7 -48 -20 -70c-9 -14 -19 -25 -32 -34c-13 -11 -31 -18 -49 -24c-19 -3 -39 -5 -63 -5h-198v441v0zM487 426c28 29 66 43 113 43c27 0 52 -5 74 -14c21 -11 39 -25 54 -47
c12 -20 21 -41 25 -66c2 -15 4 -35 4 -62h-231c0 -32 13 -54 33 -66c12 -9 28 -13 45 -13c19 0 34 6 46 15c8 5 13 12 17 21h84c-2 -18 -12 -38 -30 -57c-27 -31 -69 -45 -119 -45c-42 0 -79 12 -112 37c-32 27 -47 69 -47 128c0 54 15 96 44 126v0zM510 554h176v-45h-176
v45v0zM289 410c12 7 18 20 18 38c0 21 -8 34 -24 41c-14 4 -30 7 -52 7h-83v-97h94c20 0 34 4 47 11v0z" />
    <glyph glyph-name="F" unicode="F" horiz-adv-x="421" 
d="M47 446h94v58c0 85 63 153 140 153h94v-115h-94c-11 0 -23 -16 -23 -36v-60h117v-117h-117v-284h-117v284h-94v117v0z" />
    <glyph glyph-name="H" unicode="H" horiz-adv-x="697" 
d="M288 234c-18 10 -38 52 -72 50c-36 -2 -52 -47 -11 -86c38 -36 79 -56 167 -51c90 4 170 81 137 155c-30 74 -117 81 -196 101c-81 20 -38 88 29 88c63 -2 95 -68 122 -65c29 4 54 47 9 85c-39 34 -88 52 -164 45c-59 -6 -117 -43 -122 -119c-7 -74 81 -112 151 -122
c49 -8 115 -31 76 -76c-38 -43 -106 -16 -126 -5v0zM212 649c33 0 65 -9 90 -27c15 4 31 4 45 4c153 0 277 -124 277 -275c0 -13 0 -26 -1 -38c18 -27 28 -60 28 -94c0 -92 -73 -165 -165 -165c-33 0 -63 9 -88 25c-17 -4 -33 -6 -51 -6c-153 0 -277 125 -277 278
c0 14 0 28 4 43c-18 25 -27 57 -27 90c0 92 73 165 165 165v0z" />
    <glyph glyph-name="I" unicode="I" horiz-adv-x="602" 
d="M115 677c38 0 69 -32 69 -70s-31 -69 -69 -69s-68 31 -68 69s30 70 68 70v0zM225 497h112v-18c43 22 102 18 144 -4c45 -25 75 -79 75 -129v-236h-110v236c0 11 -10 29 -19 32c-44 25 -90 -20 -90 -20v-248h-112v387v0zM171 110h-112v387h112v-387v0z" />
    <glyph glyph-name="J" unicode="J" horiz-adv-x="921" 
d="M211 472l-49 97l119 15l40 -81c1 0 3 0 7 1c410 69 547 -147 547 -147l-380 -108l-88 178c43 7 83 5 119 -2l36 -68l129 34s-156 110 -343 56l104 -211l-380 -110s-111 243 139 346v0zM301 287l-56 115c-108 -69 -70 -150 -70 -150l126 35v0z" />
    <glyph glyph-name="K" unicode="K" horiz-adv-x="799" 
d="M47 662h128v-182c61 35 140 54 225 54c194 0 353 -108 353 -239c0 -133 -159 -241 -353 -241c-191 0 -347 104 -353 234v0v374v0zM400 399c81 0 148 -46 148 -104c0 -59 -67 -106 -148 -106c-83 0 -148 47 -148 106c0 58 65 104 148 104v0zM400 135c124 0 225 70 225 160
c0 88 -101 160 -225 160s-225 -72 -225 -160c0 -90 101 -160 225 -160v0z" />
    <glyph glyph-name="L" unicode="L" horiz-adv-x="768" 
d="M708 533c-16 -23 -37 -45 -60 -63v-14c0 -161 -121 -344 -342 -344c-68 0 -131 20 -185 55c9 -1 19 -1 29 -1c56 0 108 18 149 51c-53 1 -97 36 -112 84c8 -2 14 -3 22 -3c12 0 22 2 32 4c-55 12 -97 60 -97 118v1c16 -8 34 -14 56 -14c-34 21 -54 58 -54 100
c0 23 6 43 16 61c60 -74 148 -122 248 -126c-2 8 -3 18 -3 26c0 67 54 122 120 122c36 0 66 -15 88 -38c27 4 54 16 77 28c-10 -27 -28 -50 -53 -66c25 3 48 10 69 19z" />
    <glyph glyph-name="M" unicode="M" horiz-adv-x="615" 
d="M569 49h-261v136h-157v103h-104v119c0 38 29 68 67 68c30 0 55 -21 63 -52c18 22 45 36 75 36c45 0 83 -31 94 -72c23 23 56 36 92 36c72 0 131 -58 131 -130v-244v0zM110 614c31 0 56 -25 56 -56c0 -32 -25 -58 -56 -58s-56 26 -56 58c0 31 25 56 56 56v0zM252 632
c40 0 74 -34 74 -74c0 -41 -34 -74 -74 -74c-41 0 -74 33 -74 74c0 40 33 74 74 74v0zM438 653c54 0 95 -43 95 -95c0 -54 -41 -97 -95 -97c-53 0 -96 43 -96 97c0 52 43 95 96 95v0z" />
    <glyph glyph-name="N" unicode="N" horiz-adv-x="794" 
d="M200 504c85 0 153 -68 153 -153s-68 -153 -153 -153c-84 0 -153 68 -153 153s69 153 153 153v0zM595 504c84 0 153 -68 153 -153s-69 -153 -153 -153c-83 0 -152 68 -152 153s69 153 152 153v0z" />
    <glyph glyph-name="O" unicode="O" horiz-adv-x="408" 
d="M47 466c20 7 41 16 56 28c14 11 25 26 34 44c9 16 14 37 18 63h70v-116h117v-90h-117v-129c0 -29 0 -45 4 -54c3 -7 11 -16 20 -22c10 -7 23 -9 37 -9c26 0 51 7 76 24v-80c-22 -9 -41 -16 -58 -21c-18 -4 -37 -6 -57 -6c-24 0 -36 4 -54 9c-18 6 -33 15 -45 26
c-13 10 -22 21 -25 34c-6 11 -8 29 -8 52v176h-68v71v0z" />
    <glyph glyph-name="P" unicode="P" horiz-adv-x="699" 
d="M168 660h272c81 0 172 -59 145 -189c-25 -113 -115 -182 -225 -182h-113l-40 -183h-160l121 554v0zM344 395h4c39 2 77 35 88 76c0 4 0 5 2 7c2 11 0 22 -2 31c-7 21 -27 38 -54 38h-79l-34 -152h75v0zM648 403c-25 -114 -117 -182 -225 -182h-115l-38 -182h-160l7 29
h134l39 183h114c109 0 201 69 225 182c9 43 5 78 -8 106c26 -30 40 -75 27 -136v0z" />
    <glyph glyph-name="Q" unicode="Q" horiz-adv-x="666" 
d="M619 382c-4 -99 -58 -185 -137 -236c41 -54 76 -47 76 -47v-48s-72 -40 -123 20c-12 14 -21 27 -30 41c-26 -9 -54 -13 -81 -13c-157 0 -281 126 -276 283c6 155 139 283 295 283c157 0 281 -128 276 -283v0zM345 594c-81 0 -149 -93 -155 -207c-3 -115 60 -208 141 -208
c12 0 23 1 36 7c-4 7 -9 16 -13 23c-21 29 -52 20 -52 20v49s77 34 130 -45c30 37 52 93 54 154c3 114 -58 207 -141 207v0z" />
    <glyph glyph-name="R" unicode="R" horiz-adv-x="704" 
d="M128 210c45 0 81 -36 81 -81s-36 -81 -81 -81s-81 36 -81 81s36 81 81 81v0zM47 452c222 0 404 -182 404 -404h-119c0 76 -29 148 -83 202s-126 85 -202 85v117v0zM47 659c337 0 611 -274 611 -611h-117c0 272 -222 494 -494 494v117v0z" />
    <glyph glyph-name="S" unicode="S" horiz-adv-x="814" 
d="M768 242c0 -90 -72 -162 -162 -162c-88 0 -162 72 -162 162v102l51 -23l74 23v-102c0 -22 16 -38 37 -38c22 0 38 16 38 38v99h124v-99v0zM444 427v45c0 20 -16 38 -36 38c-21 0 -37 -18 -37 -38v-230c0 -90 -74 -157 -162 -157c-90 0 -162 72 -162 162v99h124v-99
c0 -21 16 -39 38 -39c21 0 37 18 37 39v225c0 88 72 162 162 162c89 0 161 -74 161 -162v-45l-74 -23l-51 23v0z" />
    <glyph glyph-name="T" unicode="T" horiz-adv-x="534" 
d="M47 558c0 38 31 68 68 68c40 0 69 -30 69 -68v-68h236c37 0 68 -31 68 -71c0 -37 -31 -68 -68 -68h-236v-38c0 -54 41 -101 86 -101h151c38 0 67 -28 67 -68c0 -38 -31 -68 -68 -68h-153c-121 0 -220 106 -220 237v245v0z" />
    <glyph glyph-name="U" unicode="U" horiz-adv-x="682" 
d="M236 212h211c20 0 36 17 36 36c0 20 -16 36 -36 36h-211c-20 0 -36 -16 -36 -36c0 -19 16 -36 36 -36v0zM47 464c0 103 83 188 186 188h131c49 -6 119 -47 144 -103c7 -14 11 -18 18 -63c4 -23 4 -41 14 -50c15 -15 71 -6 81 -13l9 -7l6 -11v-7v-151
c0 -103 -85 -188 -187 -188h-216c-103 0 -186 85 -186 188v217v0zM236 427h103c20 0 36 16 36 36c0 19 -16 36 -36 36h-103c-20 0 -36 -17 -36 -36c0 -20 16 -36 36 -36v0z" />
    <glyph glyph-name="V" unicode="V" horiz-adv-x="788" 
d="M255 652c96 20 96 -146 117 -238c24 -88 38 -138 58 -138s56 48 97 124c40 76 -2 142 -81 95c31 191 331 236 292 18c-38 -219 -256 -405 -321 -446c-64 -43 -124 16 -145 61c-26 52 -99 328 -119 351c-20 24 -78 -23 -78 -23l-28 38s118 140 208 158v0z" />
    <glyph glyph-name="W" unicode="W" horiz-adv-x="704" 
d="M74 472l146 -398c-102 49 -173 153 -173 274c0 45 11 86 27 124v0zM352 652c79 0 153 -30 207 -79h-6c-29 0 -50 -27 -50 -54c0 -25 14 -47 30 -72c11 -20 26 -45 26 -83c0 -27 -9 -59 -24 -99l-30 -101l-110 326c18 2 34 4 34 4c16 2 14 25 -2 25c0 0 -48 -4 -81 -4
c-30 0 -81 4 -81 4c-16 0 -18 -23 -2 -25c0 0 17 -2 33 -4l47 -129l-67 -200l-110 329c18 2 34 4 34 4c17 2 15 25 -1 25c0 0 -49 -4 -81 -4h-20c54 83 147 137 254 137v0zM620 494c23 -43 38 -92 38 -146c0 -112 -62 -211 -153 -263l93 268c18 44 24 80 24 110
c0 11 0 22 -2 31v0zM352 44c-29 0 -58 3 -85 12l90 265l94 -256c1 -1 1 -3 3 -3c-32 -13 -66 -18 -102 -18v0z" />
    <glyph glyph-name="X" unicode="X" horiz-adv-x="616" 
d="M369 95c3 -4 5 -5 9 -7c3 0 5 -2 9 -2c5 0 7 2 11 5c1 2 1 6 1 13v97c0 7 0 11 -3 15c-2 3 -6 5 -11 5c-4 0 -5 -2 -9 -2c-2 -2 -5 -3 -7 -5v-119v0zM502 216c-4 -4 -4 -11 -4 -18v-18h33v18c0 7 -2 14 -4 18c-2 1 -7 3 -12 3c-6 0 -11 -2 -13 -3v0zM313 397
c5 0 9 2 13 6c3 3 5 7 5 12v114c0 5 -2 9 -5 11c-4 3 -8 5 -13 5s-11 -2 -13 -5c-3 -2 -5 -6 -5 -11v-114c0 -5 2 -9 4 -12c3 -4 9 -6 14 -6v0zM47 315h131v-36h-45v-220h-41v220h-45v36v0zM135 649l32 -113h2l31 113h48l-56 -165v-117h-48v111l-56 171h47v0zM252 527
c0 16 5 29 16 40c13 9 27 14 47 14c18 0 32 -5 43 -16c11 -9 16 -24 16 -38v-108c0 -18 -5 -32 -16 -41c-11 -11 -27 -17 -45 -17c-20 0 -34 6 -45 17c-11 10 -16 25 -16 41v108v0zM403 250c11 0 20 -4 27 -11c5 -9 9 -20 9 -36v-104c0 -15 -4 -24 -9 -31s-14 -11 -25 -11
c-7 0 -15 2 -20 4c-5 3 -11 7 -16 12v-14h-38v256h38v-81c5 5 11 9 16 12c5 4 11 4 18 4v0zM408 576h44v-161c0 -5 0 -9 1 -10c2 -2 6 -4 9 -4c4 0 8 2 13 5c4 2 9 6 13 11v159h43v-209h-43v23c-8 -9 -17 -14 -26 -20c-7 -3 -16 -7 -23 -7c-11 0 -18 4 -23 11
c-4 5 -8 14 -8 27v175v0zM570 198v-49h-72v-36c0 -9 0 -16 4 -20c2 -3 7 -5 13 -5c5 0 10 2 12 3c4 4 4 11 4 22v9h39v-9c0 -20 -5 -34 -14 -45c-9 -9 -23 -14 -43 -14c-16 0 -29 5 -40 16c-9 11 -14 25 -14 43v85c0 16 5 28 16 39s25 16 41 16c18 0 31 -5 40 -14
c9 -11 14 -23 14 -41v0zM302 59h-38v22c-7 -9 -14 -15 -21 -18c-7 -4 -15 -6 -22 -6c-9 0 -16 2 -20 7c-5 8 -7 15 -7 26v158h38v-144c0 -5 2 -9 2 -11c2 -2 5 -2 9 -2c2 0 5 0 11 4c3 2 7 5 10 9v144h38v-189v0z" />
    <glyph glyph-name="Y" unicode="Y" horiz-adv-x="930" 
d="M47 602h373v-4s1 0 1 -2l-1 -7v-40h-112c50 -73 122 -162 153 -203l149 135h-90l-12 52h327l-1 -3h1l-23 -35h-2l-9 -14h-59c-9 -2 -16 -4 -20 -4c-22 -5 -209 -151 -221 -187c-2 -11 0 -131 3 -149c13 -2 101 0 117 -2l-2 -38c-16 2 -129 2 -192 2
c-34 0 -139 -4 -171 -4l5 36c18 2 92 -3 108 15c7 7 6 120 2 140c-5 20 -171 225 -214 259h-110v53v0zM826 191l-50 4l-2 234c13 -4 101 -11 110 -11l-58 -227v0zM821 99l-29 2l-25 4v54l32 -4l29 -2l-7 -54v0z" />
    <glyph glyph-name="Z" unicode="Z" horiz-adv-x="560" 
d="M197 256c3 4 5 15 7 40c7 88 31 137 85 165c12 -7 27 -14 43 -16v-5c0 -7 0 -15 3 -20l4 -9l9 -4c54 -18 106 -3 135 9l25 -55c-79 -42 -115 -36 -156 -29h-13c-13 0 -18 -9 -22 -20c-1 -13 11 -20 11 -20c4 -3 114 -45 186 -187l-63 -38c-17 33 -62 90 -157 132
c-4 1 -5 3 -9 3c-5 0 -11 -3 -14 -7l-11 -13c-34 -46 -74 -99 -182 -127l-31 79c40 11 112 41 150 122v0zM281 650c45 0 81 -36 81 -81s-36 -81 -81 -81s-81 36 -81 81s36 81 81 81v0z" />
    <glyph glyph-name="space" unicode=" " 
d="M399 707v0c194 0 351 -157 351 -351c0 -195 -157 -352 -351 -352s-352 157 -352 352c0 194 158 351 352 351z" />
    <glyph glyph-name="a" unicode="a" 
d="M218 266v0c-5 3 -8 -2 -4 -5c49 -45 113 -71 185 -71c44 0 96 12 135 36c6 3 11 7 16 11c7 4 1 12 -6 9c-3 -1 -7 -3 -10 -4c-43 -17 -89 -25 -131 -25c-68 0 -133 19 -185 49zM433 410v0v-8c0 -16 1 -29 -8 -42c-5 -10 -13 -16 -22 -19h-5c-16 0 -25 12 -25 29
c0 22 13 33 30 38c9 2 20 2 30 2zM428 477v0c6 -8 5 -19 5 -29v-6c-9 0 -19 -1 -30 -2c-16 -2 -32 -5 -45 -12c-26 -10 -43 -32 -43 -65c0 -41 26 -62 60 -62c11 0 20 2 28 4c13 4 24 11 38 25c7 -10 9 -15 23 -26c3 -1 7 -1 9 1c9 7 23 19 31 26c3 3 3 7 1 10
c-8 10 -16 19 -16 37v63c0 26 2 51 -17 69c-16 14 -41 20 -61 20h-8c-35 -2 -73 -17 -81 -61c-2 -6 2 -8 5 -9l39 -4c4 0 6 4 7 7c4 16 16 23 30 25h3c8 0 17 -4 22 -11zM518 263v0c-4 -3 -3 -6 1 -6c4 1 9 1 15 2c14 1 29 2 33 -3c5 -7 -6 -35 -11 -47c-2 -3 2 -5 5 -2
c17 14 24 40 25 54v2c0 3 -1 5 -2 6c-3 5 -28 8 -50 2c-6 -2 -11 -5 -16 -8zM399 -1v0c-194 0 -352 158 -352 352s158 351 352 351s351 -157 351 -351s-157 -352 -351 -352z" />
    <glyph glyph-name="colon" unicode=":" horiz-adv-x="798" 
d="M581 214c-48 -42 -156 -68 -214 -23c-8 6 -12 27 -23 19c-17 -72 -38 -155 -70 -210h-48h2c-7 28 -3 85 2 114c12 70 55 166 55 236c0 31 -17 63 -11 97c9 64 98 121 129 49c36 -83 -76 -184 -14 -242c12 -12 44 -19 70 -15c127 26 146 295 40 357
c-151 91 -322 -49 -307 -193c6 -55 65 -85 16 -134c-70 28 -97 79 -97 161c2 170 161 280 337 259c114 -13 210 -104 222 -208c9 -93 -21 -210 -89 -267z" />
  </font>
</defs>
</svg>
